[公主嫁到(国粤双语)].2009.EP01-EP31.HDTV.720P.x264.2Audio-CnSCG[中文字幕/30.25G]

所属分类:电视剧 发 布 者:Lucky
文件大小:30.30 GB 发布来源:圣城BT组
更新时间:2010-10-28 13:24:37 网友评论: Loading...
点    击: Loading...
影片类型:古装/喜剧

标签(Tag):公主嫁到  古装  喜剧  2009  HDTV  720P  x264 
公主嫁到的压制由于音频未压缩 国配码率较高 所以一集大小在999M左右
本人感觉 公主嫁到比宫心计好看很多 非常喜剧 强力推荐~

[img]http://img.tvb.com/ii/6/14565/000001456449_1282710052.jpg[/img]

[img]http://i.imagehost.org/0918/02_2.jpg[/img]

首播日期: 2010.08.23 星期一至五 9:30PM 翡翠台、9:30PM 高清翡翠台)(HD)
此剧为2010年节目巡礼剧集之一,为《宫心计》和《溏心风暴之家好月圆》幕后班底打造之作品。
中文名: 公主嫁到/宫心计II公主嫁到
外文名: Can't Buy Me Love
其它译名: 宫心计2公主出巡
出品时间: 2009
制片地区: 中国香港
导演: 关树明
编剧: 陈静仪、关颂玲、梁敏华
监制: 梅小青
集数: 32集
类型: 古装,喜剧
演員 李香琴 (飾金太夫人), 李國麟 (飾丁財旺), 李詩韻 (飾阮小玉), 阮兆祥 (飾金多福), 佘詩曼 (飾昭陽公主), 馬國明 (飾丁有維), 陳法拉 (飾司徒銀屏), 陳敏之 (飾永河公主), 陳豪 (飾金多祿), 惠英紅 (飾韋貴妃), 黃浩然 (飾金多壽), 楊卓娜 (飾孫貴妃), 蔣志光 (飾羅道遠), 鍾嘉欣 (飾吳四德), 關菊英 (飾丁來喜), 韓馬利 (飾米仁慈), 謝雪心 (飾崔太妃)

故事大纲
  刁蛮任性的昭阳公主(佘诗曼饰)为避嫁吐蕃急招驸马,一代金店掌舵人丁来喜(关菊英饰)主动送上门,因二儿子金多禄(陈豪饰)及三儿子金多寿(黄浩然饰)均属单身,希望藉此解决金店面临的财困危机。兄弟情深,多禄为救家业,主动答应亲事。谁料公主过门後尽显骄横跋扈本色,要求金家上下向她行君臣之礼,金家至高的精神领袖金太夫人(李香琴饰)也难逃一劫,公主的心腹侍婢司徒银屏(陈法拉饰)更不可一世,尊卑不分,连官媒丁有维(马国明饰)也不放眼内;金家各人不甘受屈,合力反抗,但金家出名的大力丫环吴四德(锺嘉欣饰)却倒戈相向,与公主站在同一阵线。公主斗驸马,三合三离,各施各法,最後更闹上皇宫,要由太宗亲自平息风波……娶得皇帝女,当然想夫凭妻贵;但娶著这位野蛮公主,又岂能百忍成金?

编码信息放11集做参考 其他集数除了最后一集大结局 其他参数基本一致

C:\downloads\公主嫁到Cant.Buy.Me.Love.EP11.720P.HDTV.X264.2Audio-CnSCG.mkv
General
Complete name : C:\downloads\公主嫁到Cant.Buy.Me.Love.EP11.720P.HDTV.X264.2Audio-CnSCG.mkv
Format : Matroska
File size : 999 MiB
Duration : 43mn 51s
Overall bit rate : 3 186 Kbps
Encoded date : UTC 2010-10-21 15:34:44
Writing application : mkvmerge v4.0.0 ('The Stars were mine') 编译于 Jun 6 2010 16:18:42
Writing library : libebml v1.0.0 + libmatroska v1.0.0
Video #1
ID : 1
Format : AVC
Format/Info : Advanced Video Codec
Format profile : [email protected]
Format settings, CABAC : Yes
Format settings, ReFrames : 3 frames
Muxing mode : Container [email protected]
Codec ID : V_MPEG4/ISO/AVC
Duration : 43mn 51s
Bit rate : 2 355 Kbps
Nominal bit rate : 2 416 Kbps
Width : 1 280 pixels
Height : 720 pixels
Display aspect ratio : 16:9
Frame rate : 25.000 fps
Resolution : 8 bits
Colorimetry : 4:2:0
Scan type : Progressive
Bits/(Pixel*Frame) : 0.102
Stream size : 739 MiB (74%)
Title : [email protected]
Writing library : x264 core 98 r1649 c54c47d
Encoding settings : cabac=1 / ref=4 / deblock=1:-1:-1 / analyse=0x3:0x133 / me=umh / subme=7 / psy=1 / psy_rd=1.00:0.15 / mixed_ref=1 / me_range=24 / chroma_me=1 / trellis=1 / 8x8dct=1 / cqm=0 / deadzone=21,11 / fast_pskip=0 / chroma_qp_offset=-3 / threads=3 / sliced_threads=0 / slices=4 / nr=0 / decimate=1 / interlaced=0 / constrained_intra=0 / bframes=3 / b_pyramid=1 / b_adapt=2 / b_bias=0 / direct=3 / weightb=1 / weightp=0 / keyint=24 / keyint_min=2 / scenecut=40 / intra_refresh=0 / rc_lookahead=25 / rc=2pass / mbtree=1 / bitrate=2416 / ratetol=1.0 / qcomp=0.60 / qpmin=10 / qpmax=51 / qpstep=4 / cplxblur=20.0 / qblur=0.5 / vbv_maxrate=14000 / vbv_bufsize=14500 / ip_ratio=1.40 / aq=1:1.00 / nal_hrd=vbr
Color primaries : BT.709-5, BT.1361, IEC 61966-2-4, SMPTE RP177
Transfer characteristics : BT.709-5, BT.1361
Matrix coefficients : BT.709-5, BT.1361, IEC 61966-2-4 709, SMPTE RP177
Audio #2
ID : 2
Format : AC-3
Format/Info : Audio Coding 3
Codec ID : A_AC3
Duration : 43mn 51s
Bit rate mode : Constant
Bit rate : 384 Kbps
Channel(s) : 6 channels
Channel positions : Front: L C R, Surround: L R, LFE
Sampling rate : 48.0 KHz
Stream size : 120 MiB (12%)
Title : Mandarin
Audio #3
ID : 3
Format : AC-3
Format/Info : Audio Coding 3
Codec ID : A_AC3
Duration : 43mn 51s
Bit rate mode : Constant
Bit rate : 384 Kbps
Channel(s) : 6 channels
Channel positions : Front: L C R, Surround: L R, LFE
Sampling rate : 48.0 KHz
Stream size : 120 MiB (12%)
Title : Cantonese
Text #4
ID : 4
Format : UTF-8
Codec ID : S_TEXT/UTF8
Codec ID/Info : UTF-8 Plain Text
Title : Chinese Simplified

[img]http://e8gtnw.blu.livefilestore.com/y1p_Ipkz15tG6WgN9iYwjX3eR37FpaGEP5-QDdjvjFkB8UxaFL8RHdrFrK-WD_RWo5EHgQedaQhABz2w1eSUPRra0fsBuFewjs3/%E5%85%AC%E4%B8%BB%E5%AB%81%E5%88%B0Cant.Buy.Me.Love.EP09.720P.HDTV.X264.2Audio-CnSCG%5B(044039)20-07-29%5D.JPG?psid=1[/img]

[img]http://e8gtnw.blu.livefilestore.com/y1pi5EWfhwU0bV6FKKcVyPNoayXcQIoiYMa6oIM88X4H-T9pr_6xdx8j_txutUKrKSXPaXUNVBCylEld__jMpj1Rd9IFX89HQn4/%E5%85%AC%E4%B8%BB%E5%AB%81%E5%88%B0Cant.Buy.Me.Love.EP09.720P.HDTV.X264.2Audio-CnSCG%5B(007662)20-07-10%5D.JPG?psid=1[/img]

本类排行:

其它类排行: